20 Ağustos 2019, 17:49:56

Gönderen Konu: Kara Şimşek - Sezon 4 - Bölüm 1-2 - Dizi İndir  (Okunma sayısı 3404 defa)

Çevrimdışı tetikçi

  • Yönetici
  • Kıdemli Üye
  • *****
  • İleti: 283
  • Karma +1/-0
    • Asayis
    • Profili Görüntüle

                           
www.a-takimi.org
.avi
TR(Türkçe)
Aksiyon - Kriminal
1(791 MB)


Kod: [Seç]
General
Complete name                            : Kara Simsek S04B01-02.avi
Format                                   : AVI
Format/Info                              : Audio Video Interleave
File size                                : 792 MiB
Duration                                 : 1h 36mn
Overall bit rate mode                    : Variable
Overall bit rate                         : 1 142 Kbps
Writing application                      : VirtualDubMod 1.5.10.2 (build 2540/release)
Writing library                          : VirtualDubMod build 2540/release

Video
ID                                       : 0
Format                                   : MPEG-4 Visual
Format profile                           : Advanced Simple@L5
Format settings, BVOP                    : 2
Format settings, QPel                    : No
Format settings, GMC                     : No warppoints
Format settings, Matrix                  : Default (H.263)
Codec ID                                 : XVID
Codec ID/Hint                            : XviD
Duration                                 : 1h 36mn
Bit rate                                 : 873 Kbps
Width                                    : 512 pixels
Height                                   : 384 pixels
Display aspect ratio                     : 4:3
Frame rate                               : 23.976 fps
Color space                              : YUV
Chroma subsampling                       : 4:2:0
Bit depth                                : 8 bits
Scan type                                : Progressive
Compression mode                         : Lossy
Bits/(Pixel*Frame)                       : 0.185
Stream size                              : 605 MiB (76%)
Writing library                          : XviD 1.1.0 (UTC 2005-11-22)

Audio #1
ID                                       : 1
Format                                   : MPEG Audio
Format version                           : Version 1
Format profile                           : Layer 3
Mode                                     : Joint stereo
Mode extension                           : MS Stereo
Codec ID                                 : 55
Codec ID/Hint                            : MP3
Duration                                 : 1h 36mn
Bit rate mode                            : Constant
Bit rate                                 : 128 Kbps
Channel count                            : 2 channels
Sampling rate                            : 48.0 KHz
Compression mode                         : Lossy
Stream size                              : 88.7 MiB (11%)
Alignment                                : Aligned on interleaves
Interleave, duration                     : 42 ms (1.00 video frame)
Interleave, preload duration             : 504 ms
Writing library                          : LAME3.90.3

Audio #2
ID                                       : 2
Format                                   : MPEG Audio
Format version                           : Version 1
Format profile                           : Layer 3
Mode                                     : Dual mono
Codec ID                                 : 55
Codec ID/Hint                            : MP3
Duration                                 : 1h 36mn
Bit rate mode                            : Variable
Bit rate                                 : 128 Kbps
Channel count                            : 2 channels
Sampling rate                            : 48.0 KHz
Compression mode                         : Lossy
Stream size                              : 85.6 MiB (11%)
Alignment                                : Aligned on interleaves
Interleave, duration                     : 24 ms (0.58 video frame)
Interleave, preload duration             : 516 ms
Writing library                          : LAME3.96r
Encoding settings                        : -m d -V 4 -q 3 -lowpass 17.5 --abr 128



Kara Şimşek - Sezon 4 - Bölüm 1-2
« Son Düzenleme: 16 Mayıs 2019, 10:15:34 Gönderen: tetikçi »
Yasaklı Sitelere ve Download Sitelerine Erişmek İçin DNS ayarlarınıızı alttakilerle değiğtirin.
208-67-222-222
208-67-220-220

156.154.70.22
156.154.71.22


Düzenlenmesi Gereken Konular için:
Düzeltilmesi Gereken Uygunsuz Konu ya da Mesajlar

Kırık link Bildirme Merkezi

©Copyright A-Takımı © Since 2012
█║▌│ █║▌ ║││█║█║

Çevrimdışı arda68

  • Yeni Üye
  • *
  • İleti: 2
  • Karma +0/-0
  • The A Team
    • Agrefis
    • Profili Görüntüle
Ynt: Kara Şimşek - Sezon 4 - Bölüm 1-2 - Dizi İndir
« Yanıtla #1 : 01 Aralık 2018, 22:54:57 »
kardeşim merhaba link çalışmıyor malasef

Çevrimdışı tetikçi

  • Yönetici
  • Kıdemli Üye
  • *****
  • İleti: 283
  • Karma +1/-0
    • Asayis
    • Profili Görüntüle
Ynt: Kara Şimşek - Sezon 4 - Bölüm 1-2 - Dizi İndir
« Yanıtla #2 : 04 Aralık 2018, 18:34:55 »
Linkler yenilenmiştir.
Yasaklı Sitelere ve Download Sitelerine Erişmek İçin DNS ayarlarınıızı alttakilerle değiğtirin.
208-67-222-222
208-67-220-220

156.154.70.22
156.154.71.22


Düzenlenmesi Gereken Konular için:
Düzeltilmesi Gereken Uygunsuz Konu ya da Mesajlar

Kırık link Bildirme Merkezi

©Copyright A-Takımı © Since 2012
█║▌│ █║▌ ║││█║█║

Çevrimdışı ali.7221

  • Yeni Üye
  • *
  • İleti: 1
  • Karma +0/-0
  • The A Team
    • Agrefis
    • Profili Görüntüle
Ynt: Kara Şimşek - Sezon 4 - Bölüm 1-2 - Dizi İndir
« Yanıtla #3 : 05 Aralık 2018, 14:45:02 »
rar şifresi ne