20 Ağustos 2019, 16:38:15

Gönderen Konu: Kara Şimşek - Sezon 4 - Bölüm 3 - Dizi İndir  (Okunma sayısı 1874 defa)

Çevrimdışı tetikçi

  • Yönetici
  • Kıdemli Üye
  • *****
  • İleti: 283
  • Karma +1/-0
    • Asayis
    • Profili Görüntüle
Kara Şimşek - Sezon 4 - Bölüm 3 - Dizi İndir
« : 17 Ocak 2016, 18:03:15 »

                           
www.a-takimi.org
.avi
TR(Türkçe)
Aksiyon - Kriminal
1(395 MB)


Kod: [Seç]
General
Complete name                            : Kara Simsek S04B03.avi
Format                                   : AVI
Format/Info                              : Audio Video Interleave
File size                                : 395 MiB
Duration                                 : 48mn 15s
Overall bit rate mode                    : Variable
Overall bit rate                         : 1 145 Kbps
Writing application                      : VirtualDubMod 1.5.10.2 (build 2540/release)
Writing library                          : VirtualDubMod build 2540/release

Video
ID                                       : 0
Format                                   : MPEG-4 Visual
Format profile                           : Advanced Simple@L5
Format settings, BVOP                    : 2
Format settings, QPel                    : No
Format settings, GMC                     : No warppoints
Format settings, Matrix                  : Default (H.263)
Codec ID                                 : XVID
Codec ID/Hint                            : XviD
Duration                                 : 48mn 15s
Bit rate                                 : 875 Kbps
Width                                    : 512 pixels
Height                                   : 384 pixels
Display aspect ratio                     : 4:3
Frame rate                               : 23.976 fps
Color space                              : YUV
Chroma subsampling                       : 4:2:0
Bit depth                                : 8 bits
Scan type                                : Progressive
Compression mode                         : Lossy
Bits/(Pixel*Frame)                       : 0.186
Stream size                              : 302 MiB (76%)
Writing library                          : XviD 1.1.0 (UTC 2005-11-22)

Audio #1
ID                                       : 1
Format                                   : MPEG Audio
Format version                           : Version 1
Format profile                           : Layer 3
Mode                                     : Joint stereo
Codec ID                                 : 55
Codec ID/Hint                            : MP3
Duration                                 : 48mn 15s
Bit rate mode                            : Constant
Bit rate                                 : 128 Kbps
Channel count                            : 2 channels
Sampling rate                            : 48.0 KHz
Compression mode                         : Lossy
Stream size                              : 44.2 MiB (11%)
Alignment                                : Aligned on interleaves
Interleave, duration                     : 42 ms (1.00 video frame)
Interleave, preload duration             : 504 ms
Writing library                          : LAME3.90.3

Audio #2
ID                                       : 2
Format                                   : MPEG Audio
Format version                           : Version 1
Format profile                           : Layer 3
Mode                                     : Dual mono
Codec ID                                 : 55
Codec ID/Hint                            : MP3
Duration                                 : 48mn 15s
Bit rate mode                            : Variable
Bit rate                                 : 128 Kbps
Channel count                            : 2 channels
Sampling rate                            : 48.0 KHz
Compression mode                         : Lossy
Stream size                              : 42.9 MiB (11%)
Alignment                                : Aligned on interleaves
Interleave, duration                     : 24 ms (0.58 video frame)
Interleave, preload duration             : 512 ms
Writing library                          : LAME3.96r
Encoding settings                        : -m d -V 4 -q 3 -lowpass 17.5 --abr 128


Kara Şimşek - Sezon 4 - Bölüm 3
« Son Düzenleme: 16 Mayıs 2019, 10:15:06 Gönderen: tetikçi »
Yasaklı Sitelere ve Download Sitelerine Erişmek İçin DNS ayarlarınıızı alttakilerle değiğtirin.
208-67-222-222
208-67-220-220

156.154.70.22
156.154.71.22


Düzenlenmesi Gereken Konular için:
Düzeltilmesi Gereken Uygunsuz Konu ya da Mesajlar

Kırık link Bildirme Merkezi

©Copyright A-Takımı © Since 2012
█║▌│ █║▌ ║││█║█║