30 Kasım 2020, 07:23:23

Gönderen Konu: The Mandalorian - Sezon 1 - Bölüm 1 - Türkçe Altyazı - Dizi İndir  (Okunma sayısı 10035 defa)

Çevrimdışı tetikçi

  • Yönetici
  • Kıdemli Üye
  • *****
  • Thank You
  • -Given: 0
  • -Receive: 0
  • İleti: 291
  • Karma +1/-0
    • Asayis
    • Profili Görüntüle
                           
www.a-takimi.org
.mp4
Türkçe Altyazı
Aksiyon
1(380 MB)


Kod: [Seç]
General
Complete name               : The.Mandalorian.S01E01.WEBRip.x264-ION10.mp4
Format                      : MPEG-4
Format profile              : Base Media
Codec ID                    : isom (isom/iso2/avc1/mp41)
File size                   : 372 MiB
Duration                    : 38 min 46 s
Overall bit rate            : 1 340 kb/s
Movie name                  : The.Mandalorian.S01E01.WEBRip.x264-ION10
Encoded date                : UTC 2019-11-12 07:47:51
Tagged date                 : UTC 2019-11-12 07:47:51
Writing application         : Lavf58.0.101
Comment                     : The.Mandalorian.S01E01.WEBRip.x264-ION10

Video
ID                          : 1
Format                      : AVC
Format/Info                 : Advanced Video Codec
Format profile              : High@L3.1
Format settings             : CABAC / 5 Ref Frames
Format settings, CABAC      : Yes
Format settings, Reference  : 5 frames
Codec ID                    : avc1
Codec ID/Info               : Advanced Video Coding
Duration                    : 38 min 46 s
Bit rate                    : 1 100 kb/s
Width                       : 720 pixels
Height                      : 302 pixels
Display aspect ratio        : 2.40:1
Original display aspect rat : 2.40:1
Frame rate mode             : Constant
Frame rate                  : 23.976 (24000/1001) FPS
Color space                 : YUV
Chroma subsampling          : 4:2:0
Bit depth                   : 8 bits
Scan type                   : Progressive
Bits/(Pixel*Frame)          : 0.211
Stream size                 : 299 MiB (80%)
Title                       : The.Mandalorian.S01E01.WEBRip.x264-ION10
Writing library             : x264 core 148 r2795M aaa9aa8
Encoding settings           : cabac=1 / ref=5 / deblock=1:-1:-1 / analyse=0x3:0x113 / me=umh / subme=9 / psy=1 / psy_rd=1.00:0.15 / mixed_ref=1 / me_range=16 / chroma_me=1 / trellis=2 / 8x8dct=1 / cqm=0 / deadzone=21,11 / fast_pskip=1 / chroma_qp_offset=-3 / threads=24 / lookahead_threads=2 / sliced_threads=0 / nr=0 / decimate=1 / interlaced=0 / bluray_compat=0 / constrained_intra=0 / bframes=3 / b_pyramid=2 / b_adapt=2 / b_bias=0 / direct=3 / weightb=1 / open_gop=0 / weightp=2 / keyint=250 / keyint_min=23 / scenecut=40 / intra_refresh=0 / rc_lookahead=50 / rc=abr / mbtree=1 / bitrate=1100 / ratetol=1.0 / qcomp=0.60 / qpmin=0 / qpmax=69 / qpstep=4 / ip_ratio=1.40 / aq=1:1.00
Encoded date                : UTC 2019-11-12 07:47:51
Tagged date                 : UTC 2019-11-12 07:47:51
Codec configuration box     : avcC

Audio
ID                          : 2
Format                      : AAC LC
Format/Info                 : Advanced Audio Codec Low Complexity
Codec ID                    : mp4a-40-2
Duration                    : 38 min 46 s
Bit rate mode               : Constant
Bit rate                    : 256 kb/s
Channel(s)                  : 2 channels
Channel layout              : L R
Sampling rate               : 48.0 kHz
Frame rate                  : 46.875 FPS (1024 SPF)
Compression mode            : Lossy
Stream size                 : 71.0 MiB (19%)
Title                       : The.Mandalorian.S01E01.WEBRip.x264-ION10
Language                    : English
Default                     : Yes
Alternate group             : 1
Encoded date                : UTC 2019-11-12 07:47:51
Tagged date                 : UTC 2019-11-12 07:47:51


The Mandalorian - Sezon 1 - Bölüm 1 - Türkçe Altyazı - Dizi İndir
Yasaklı Sitelere ve Download Sitelerine Erişmek İçin DNS ayarlarınıızı alttakilerle değiğtirin.
208-67-222-222
208-67-220-220

156.154.70.22
156.154.71.22


Düzenlenmesi Gereken Konular için:
Düzeltilmesi Gereken Uygunsuz Konu ya da Mesajlar

Kırık link Bildirme Merkezi

©Copyright A-Takımı © Since 2012
█║▌│ █║▌ ║││█║█║


 delicious  digg  facebook  furl  linkedin  myspace  reddit  stumble  technorati  twitter
Tags: the mandalorian dizi indir