24 Ekim 2019, 07:31:44

Gönderen Konu: A Takımı - Sezon 4 - Bölüm 13 - Türkçe Altyazı - Dizi İndir  (Okunma sayısı 125 defa)

Çevrimdışı tetikçi

  • Yönetici
  • Kıdemli Üye
  • *****
  • Thank You
  • -Given: 0
  • -Receive: 0
  • İleti: 289
  • Karma +1/-0
    • Asayis
    • Profili Görüntüle
                           
www.a-takimi.org
.mp4
TR -(Türkçe Dublaj)
Aksiyon - Macera - Suç
1(364 MB)

ALTYAZILI BÖLÜMDÜR. ANCAK ALTYAZISI HENÜZ ÇIKMAMIŞTIR. ALTYAZISI ÇIKINCA KONUYA EKLENECEKTİR.


Kod: [Seç]
General
Complete name               : A-Team,.The.4x13.Wheel.Of.Fortune.DVDRip-FFNDVD.[tvu.org.ru].avi
Format                      : AVI
Format/Info                 : Audio Video Interleave
File size                   : 349 MiB
Duration                    : 47 min 4 s
Overall bit rate mode       : Variable
Overall bit rate            : 1 036 kb/s
Writing application         : VirtualDub

Video
ID                          : 0
Format                      : MPEG-4 Visual
Format profile              : Advanced Simple@L5
Format settings             : BVOP2
Format settings, BVOP       : 2
Format settings, QPel       : No
Format settings, GMC        : No warppoints
Format settings, Matrix     : Default (H.263)
Muxing mode                 : Packed bitstream
Codec ID                    : XVID
Codec ID/Hint               : XviD
Duration                    : 47 min 4 s
Bit rate                    : 944 kb/s
Width                       : 512 pixels
Height                      : 384 pixels
Display aspect ratio        : 4:3
Frame rate                  : 23.976 (24000/1001) FPS
Color space                 : YUV
Chroma subsampling          : 4:2:0
Bit depth                   : 8 bits
Scan type                   : Progressive
Compression mode            : Lossy
Bits/(Pixel*Frame)          : 0.200
Stream size                 : 318 MiB (91%)
Writing library             : XviD 1.1.0 Beta1 (UTC 2005-01-16)

Audio
ID                          : 1
Format                      : MPEG Audio
Format version              : Version 1
Format profile              : Layer 3
Codec ID                    : 55
Codec ID/Hint               : MP3
Duration                    : 47 min 4 s
Bit rate mode               : Variable
Bit rate                    : 78.7 kb/s
Minimum bit rate            : 48.0 kb/s
Channel(s)                  : 1 channel
Sampling rate               : 48.0 kHz
Frame rate                  : 41.667 FPS (1152 SPF)
Compression mode            : Lossy
Stream size                 : 26.5 MiB (8%)
Alignment                   : Aligned on interleaves
Interleave, duration        : 24  ms (0.58 video frame)
Interleave, preload duratio : 239  ms
Writing library             : LAME3.92
Encoding settings           : -m m -V 7 -q 2 -lowpass 13.6 --vbr-old -b 48


A Takımı - Sezon 4 - Bölüm 13 - Dizi İndir
Yasaklı Sitelere ve Download Sitelerine Erişmek İçin DNS ayarlarınıızı alttakilerle değiğtirin.
208-67-222-222
208-67-220-220

156.154.70.22
156.154.71.22


Düzenlenmesi Gereken Konular için:
Düzeltilmesi Gereken Uygunsuz Konu ya da Mesajlar

Kırık link Bildirme Merkezi

©Copyright A-Takımı © Since 2012
█║▌│ █║▌ ║││█║█║


 delicious  digg  facebook  furl  linkedin  myspace  reddit  stumble  technorati  twitter