22 Ekim 2019, 06:09:29

Gönderen Konu: Kara Şimşek - Sezon 1 - Bölüm 1-2 - Türkçe Dublaj - Dizi İndir  (Okunma sayısı 3380 defa)

Çevrimdışı tetikçi

  • Yönetici
  • Kıdemli Üye
  • *****
  • Thank You
  • -Given: 0
  • -Receive: 0
  • İleti: 289
  • Karma +1/-0
    • Asayis
    • Profili Görüntüle

                           
www.a-takimi.org
.avi
TR(Türkçe)
Aksiyon - Kriminal
1(788 MB)


Kod: [Seç]
General
Complete name               : Kara Simsek S01B01-02.avi
Format                      : AVI
Format/Info                 : Audio Video Interleave
File size                   : 788 MiB
Duration                    : 1h 32mn
Overall bit rate mode       : Variable
Overall bit rate            : 1 196 Kbps
Writing application         : VirtualDubMod 1.5.10.2 (build 2540/release)
Writing library             : VirtualDubMod build 2540/release

Video
ID                          : 0
Format                      : MPEG-4 Visual
Format profile              : Simple@L3
Format settings, BVOP       : No
Format settings, QPel       : No
Format settings, GMC        : No warppoints
Format settings, Matrix     : Default (H.263)
Codec ID                    : XVID
Codec ID/Hint               : XviD
Duration                    : 1h 32mn
Bit rate                    : 944 Kbps
Width                       : 608 pixels
Height                      : 448 pixels
Display aspect ratio        : 4:3
Frame rate                  : 25.000 fps
Color space                 : YUV
Chroma subsampling          : 4:2:0
Bit depth                   : 8 bits
Scan type                   : Progressive
Compression mode            : Lossy
Bits/(Pixel*Frame)          : 0.139
Stream size                 : 621 MiB (79%)
Writing library             : XviD 0.0.09 (UTC 2003-03-25)

Audio #1
ID                          : 1
Format                      : MPEG Audio
Format version              : Version 1
Format profile              : Layer 3
Mode                        : Joint stereo
Codec ID                    : 55
Codec ID/Hint               : MP3
Duration                    : 1h 32mn
Bit rate mode               : Constant
Bit rate                    : 128 Kbps
Channel(s)                  : 2 channels
Sampling rate               : 48.0 KHz
Compression mode            : Lossy
Stream size                 : 84.3 MiB (11%)
Alignment                   : Aligned on interleaves
Interleave, duration        : 40 ms (1.00 video frame)
Interleave, preload duratio : 504 ms
Writing library             : LAME3.90.3

Audio #2
ID                          : 2
Format                      : MPEG Audio
Format version              : Version 1
Format profile              : Layer 3
Mode                        : Joint stereo
Codec ID                    : 55
Codec ID/Hint               : MP3
Duration                    : 1h 32mn
Bit rate mode               : Variable
Bit rate                    : 107 Kbps
Nominal bit rate            : 128 Kbps
Channel(s)                  : 2 channels
Sampling rate               : 48.0 KHz
Compression mode            : Lossy
Stream size                 : 70.4 MiB (9%)
Alignment                   : Aligned on interleaves
Interleave, duration        : 24 ms (0.60 video frame)
Interleave, preload duratio : 416 ms
Writing library             : LAME3.90.
Encoding settings           : -m j -V 0 -q 5 -lowpass 15.3 --abr 128


Kara Şimşek - Sezon 1 - Bölüm 1-2
« Son Düzenleme: 15 Mayıs 2019, 20:41:43 Gönderen: tetikçi »
Yasaklı Sitelere ve Download Sitelerine Erişmek İçin DNS ayarlarınıızı alttakilerle değiğtirin.
208-67-222-222
208-67-220-220

156.154.70.22
156.154.71.22


Düzenlenmesi Gereken Konular için:
Düzeltilmesi Gereken Uygunsuz Konu ya da Mesajlar

Kırık link Bildirme Merkezi

©Copyright A-Takımı © Since 2012
█║▌│ █║▌ ║││█║█║


 delicious  digg  facebook  furl  linkedin  myspace  reddit  stumble  technorati  twitter