27 Mayıs 2019, 04:00:11

Gönderen Konu: A Takımı - Sezon 5 - Bölüm 1 - Türkçe Altyazı - Dizi İndir  (Okunma sayısı 1338 defa)

Çevrimdışı tetikçi

  • Yönetici
  • Kıdemli Üye
  • *****
  • İleti: 283
  • Karma +1/-0
    • Asayis
    • Profili Görüntüle

                           
www.a-takimi.org
.mp4
EN -(Türkçe Altyazı)
Aksiyon - Macera - Suç
1(403 MB)

kral32700 kullanıcısına emeğinden dolayı Teşekkür Ederiz...


Kod: [Seç]
General
Complete name                  : A-Team.The.5x01.Dishpan.Man.DVDRip-SAiNTS.avi
Format                         : AVI
Format/Info                    : Audio Video Interleave
File size                      : 350 MiB
Duration                       : 48 min 8 s
Overall bit rate mode          : Variable
Overall bit rate               : 1 017 kb/s
Writing application            : Nandub v1.0rc2
Writing library                : Nandub build 1852/release

Video
ID                             : 0
Format                         : MPEG-4 Visual
Format profile                 : Advanced Simple@L5
Format settings, BVOP          : 2
Format settings, QPel          : No
Format settings, GMC           : No warppoints
Format settings, Matrix        : Default (H.263)
Muxing mode                    : Packed bitstream
Codec ID                       : XVID
Codec ID/Hint                  : XviD
Duration                       : 48 min 8 s
Bit rate                       : 918 kb/s
Width                          : 544 pixels
Height                         : 400 pixels
Display aspect ratio           : 4:3
Frame rate                     : 23.976 (24000/1001) FPS
Color space                    : YUV
Chroma subsampling             : 4:2:0
Bit depth                      : 8 bits
Scan type                      : Progressive
Compression mode               : Lossy
Bits/(Pixel*Frame)             : 0.176
Stream size                    : 316 MiB (90%)
Writing library                : XviD 1.0.3 (UTC 2004-12-20)

Audio
ID                             : 1
Format                         : MPEG Audio
Format version                 : Version 1
Format profile                 : Layer 3
Codec ID                       : 55
Codec ID/Hint                  : MP3
Duration                       : 48 min 8 s
Bit rate mode                  : Variable
Bit rate                       : 86.2 kb/s
Minimum bit rate               : 48.0 kb/s
Channel(s)                     : 1 channel
Sampling rate                  : 48.0 kHz
Compression mode               : Lossy
Stream size                    : 29.7 MiB (8%)
Alignment                      : Aligned on interleaves
Interleave, duration           : 24  ms (0.58 video frame)
Interleave, preload duration   : 204  ms
Writing library                : LAME3.93
Encoding settings              : -m m -V 1 -q 2 -lowpass 19.5 --vbr-new -b 48


A Takımı - Sezon 5 - Bölüm 1 - Dizi İndir
« Son Düzenleme: 16 Mayıs 2019, 10:26:00 Gönderen: tetikçi »
Yasaklı Sitelere ve Download Sitelerine Erişmek İçin DNS ayarlarınıızı alttakilerle değiğtirin.
208-67-222-222
208-67-220-220

156.154.70.22
156.154.71.22


Düzenlenmesi Gereken Konular için:
Düzeltilmesi Gereken Uygunsuz Konu ya da Mesajlar

Kırık link Bildirme Merkezi

©Copyright A-Takımı © Since 2012
█║▌│ █║▌ ║││█║█║