25 Nisan 2019, 03:06:27

Gönderen Konu: Kara Şimşek - Sezon 3 - Bölüm 1-2 - Dizi İndir  (Okunma sayısı 2347 defa)

Çevrimdışı tetikçi

  • Yönetici
  • Kıdemli Üye
  • *****
  • İleti: 276
  • Karma +1/-0
    • Asayis
    • Profili Görüntüle
Kara Şimşek - Sezon 3 - Bölüm 1-2 - Dizi İndir
« : 20 Temmuz 2016, 20:46:27 »

                           
www.a-takimi.org
.avi
TR(Türkçe)
Aksiyon - Kriminal
1(800 MB)


Kod: [Seç]
General
Complete name               : Kara Simsek S03B01-02.avi
Format                      : AVI
Format/Info                 : Audio Video Interleave
File size                   : 791 MiB
Duration                    : 1h 36mn
Overall bit rate mode       : Variable
Overall bit rate            : 1 145 Kbps
Writing application         : VirtualDubMod 1.5.10.2 (build 2540/release)
Writing library             : VirtualDubMod build 2540/release

Video
ID                          : 0
Format                      : MPEG-4 Visual
Format profile              : Simple@L3
Format settings, BVOP       : 2
Format settings, QPel       : No
Format settings, GMC        : No warppoints
Format settings, Matrix     : Default (H.263)
Codec ID                    : XVID
Codec ID/Hint               : XviD
Duration                    : 1h 36mn
Bit rate                    : 890 Kbps
Width                       : 512 pixels
Height                      : 384 pixels
Display aspect ratio        : 4:3
Frame rate                  : 23.976 fps
Color space                 : YUV
Chroma subsampling          : 4:2:0
Bit depth                   : 8 bits
Scan type                   : Progressive
Compression mode            : Lossy
Bits/(Pixel*Frame)          : 0.189
Stream size                 : 615 MiB (78%)
Writing library             : XviD 1.1.0 Beta2 (UTC 2005-04-04)

Audio #1
ID                          : 1
Format                      : MPEG Audio
Format version              : Version 1
Format profile              : Layer 3
Mode                        : Joint stereo
Mode extension              : MS Stereo
Codec ID                    : 55
Codec ID/Hint               : MP3
Duration                    : 1h 36mn
Bit rate mode               : Constant
Bit rate                    : 128 Kbps
Channel(s)                  : 2 channels
Sampling rate               : 48.0 KHz
Compression mode            : Lossy
Stream size                 : 88.4 MiB (11%)
Alignment                   : Aligned on interleaves
Interleave, duration        : 42 ms (1.00 video frame)
Interleave, preload duratio : 504 ms
Writing library             : LAME3.90.3

Audio #2
ID                          : 2
Format                      : MPEG Audio
Format version              : Version 1
Format profile              : Layer 3
Mode                        : Joint stereo
Mode extension              : MS Stereo
Codec ID                    : 55
Codec ID/Hint               : MP3
Duration                    : 1h 36mn
Bit rate mode               : Variable
Bit rate                    : 108 Kbps
Channel(s)                  : 2 channels
Sampling rate               : 48.0 KHz
Compression mode            : Lossy
Stream size                 : 75.9 MiB (10%)
Alignment                   : Aligned on interleaves
Interleave, duration        : 24 ms (0.58 video frame)
Interleave, preload duratio : 167 ms
Writing library             : LAME3.96r
Encoding settings           : -m j -V 4 -q 3 -lowpass 16 --abr 108


Kara Şimşek - Sezon 3 - Bölüm 1-2
« Son Düzenleme: 31 Ekim 2018, 10:49:22 Gönderen: tetikçi »
Yasaklı Sitelere ve Download Sitelerine Erişmek İçin DNS ayarlarınıızı alttakilerle değiğtirin.
208-67-222-222
208-67-220-220

156.154.70.22
156.154.71.22


Düzenlenmesi Gereken Konular için:
Düzeltilmesi Gereken Uygunsuz Konu ya da Mesajlar

Kırık link Bildirme Merkezi

©Copyright A-Takımı © Since 2012
█║▌│ █║▌ ║││█║█║