17 Temmuz 2019, 09:24:38

Gönderen Konu: Kara Şimşek - Sezon 3 - Bölüm 13 - Dizi İndir  (Okunma sayısı 3200 defa)

Çevrimdışı tetikçi

  • Yönetici
  • Kıdemli Üye
  • *****
  • İleti: 283
  • Karma +1/-0
    • Asayis
    • Profili Görüntüle

                           
www.a-takimi.org
.avi
TR(Türkçe)
Aksiyon - Kriminal
1(395 MB)


Kod: [Seç]
General
Complete name               : Kara Simsek S03B13.avi
Format                      : AVI
Format/Info                 : Audio Video Interleave
File size                   : 396 MiB
Duration                    : 48mn 46s
Overall bit rate mode       : Variable
Overall bit rate            : 1 134 Kbps
Writing application         : VirtualDubMod 1.5.10.2 (build 2540/release)
Writing library             : VirtualDubMod build 2540/release

Video
ID                          : 0
Format                      : MPEG-4 Visual
Format profile              : Simple@L3
Format settings, BVOP       : 2
Format settings, QPel       : No
Format settings, GMC        : No warppoints
Format settings, Matrix     : Default (H.263)
Codec ID                    : XVID
Codec ID/Hint               : XviD
Duration                    : 48mn 46s
Bit rate                    : 881 Kbps
Width                       : 512 pixels
Height                      : 384 pixels
Display aspect ratio        : 4:3
Frame rate                  : 23.976 fps
Color space                 : YUV
Chroma subsampling          : 4:2:0
Bit depth                   : 8 bits
Scan type                   : Progressive
Compression mode            : Lossy
Bits/(Pixel*Frame)          : 0.187
Stream size                 : 307 MiB (78%)
Writing library             : XviD 1.1.0 Beta2 (UTC 2005-04-04)

Audio #1
ID                          : 1
Format                      : MPEG Audio
Format version              : Version 1
Format profile              : Layer 3
Mode                        : Joint stereo
Mode extension              : MS Stereo
Codec ID                    : 55
Codec ID/Hint               : MP3
Duration                    : 48mn 46s
Bit rate mode               : Constant
Bit rate                    : 128 Kbps
Channel(s)                  : 2 channels
Sampling rate               : 48.0 KHz
Compression mode            : Lossy
Stream size                 : 44.6 MiB (11%)
Alignment                   : Aligned on interleaves
Interleave, duration        : 42 ms (1.00 video frame)
Interleave, preload duratio : 504 ms
Writing library             : LAME3.90.3

Audio #2
ID                          : 2
Format                      : MPEG Audio
Format version              : Version 1
Format profile              : Layer 3
Codec ID                    : 55
Codec ID/Hint               : MP3
Duration                    : 48mn 46s
Bit rate mode               : Variable
Bit rate                    : 108 Kbps
Channel(s)                  : 1 channel
Sampling rate               : 48.0 KHz
Compression mode            : Lossy
Stream size                 : 37.5 MiB (9%)
Alignment                   : Aligned on interleaves
Interleave, duration        : 24 ms (0.58 video frame)
Interleave, preload duratio : 171 ms
Writing library             : LAME3.96r
Encoding settings           : -m m -V 4 -q 3 -lowpass 20.5 --abr 108


Kara Şimşek - Sezon 3 - Bölüm 13
« Son Düzenleme: 16 Mayıs 2019, 21:14:14 Gönderen: tetikçi »
Yasaklı Sitelere ve Download Sitelerine Erişmek İçin DNS ayarlarınıızı alttakilerle değiğtirin.
208-67-222-222
208-67-220-220

156.154.70.22
156.154.71.22


Düzenlenmesi Gereken Konular için:
Düzeltilmesi Gereken Uygunsuz Konu ya da Mesajlar

Kırık link Bildirme Merkezi

©Copyright A-Takımı © Since 2012
█║▌│ █║▌ ║││█║█║